#TITLE:Like Me;
#SUBTITLE:;
#ARTIST:Girlicious;
#TITLETRANSLIT:Like Me;
#SUBTITLETRANSLIT:;
#ARTISTTRANSLIT:Girlicious;
#CREDIT:;
#BANNER:Like Me-bn.png;
#BACKGROUND:Like Me-bg.png;
#LYRICSPATH:;
#CDTITLE:pm4cd.png;
#MUSIC:Like Me.mp3;
#OFFSET:0.060;
#SAMPLESTART:40.807;
#SAMPLELENGTH:20.000;
#SELECTABLE:YES;
#BPMS:0.000=95.530;
#STOPS:;
#BGCHANGES:;
// cache tags:
#FIRSTBEAT:1.000;
#LASTBEAT:274.000;
#SONGFILENAME:Songs/Music V.I.P ^_^/Like Me/Like Me.sm;
#HASMUSIC:1;
#HASBANNER:1;
#MUSICLENGTH:175.778;
// end cache tags

//---------------dance-single - ----------------
#NOTES:
     dance-single:
     :
     Hard:
     10:
     0.991,0.857,1.000,0.210,0.620,716.000,295.000,37.000,0.000,231.000:
0000
0000
0110
0000
1001
0110
0000
0110
,
1001
0010
0010
0010
0110
0000
0000
0000
1001
0000
0110
0000
0000
0000
0110
0000
,
1001
0100
0100
0100
0110
0000
0000
0000
1001
0000
0110
0000
0000
0000
0110
0000
,
1001
0010
0010
0010
0110
0000
0000
0000
1001
0000
0110
1000
0100
1000
0110
0001
,
0010
0001
0010
0100
1111
0000
0001
0000
0010
0000
1110
0000
0100
0000
1101
0000
,
0011
0001
0001
0001
1011
0000
0100
0000
0001
0000
0111
0000
1000
0000
1110
0000
,
1010
1000
1000
1000
1101
0000
0010
0000
0001
0010
1101
0010
0100
0010
1101
0010
,
0100
0010
0001
0010
1101
0000
0010
0000
0100
0000
1011
0100
1000
0010
0100
1000
,
0100
0010
1001
0010
1101
0000
0001
0000
0100
0000
0111
0000
0100
0000
1101
0000
,
0010
1010
0010
0010
1101
0000
1000
0000
0010
0000
1101
0000
0010
0000
0111
0000
,
0001
0011
0001
0001
1110
0000
0010
0000
1000
0000
0111
0000
1000
0000
1011
0000
,
1000
1001
1000
1000
1011
0100
0010
0001
0010
0000
1101
0010
0001
0001
0001
0001
,
0001
0001
0001
0001
1011
0000
1000
0000
0100
0000
1011
0000
1000
0000
0111
0000
,
0100
0110
0100
0100
1011
0000
0001
0000
0010
0000
1101
0000
0010
0000
1110
0000
,
0010
0011
0010
0010
0111
0000
1000
0000
0010
0000
1011
0000
0010
0000
1110
0000
,
1000
1010
1000
1000
1110
0000
0001
0000
1000
0000
0111
1000
0100
0000
1101
0100
,
0100
0100
0100
0100
1102
0010
0100
0010
1100
0000
1110
0000
0000
0000
1110
0000
,
1100
0010
0100
0010
2113
0001
0010
0001
0110
0000
0111
0000
0000
0000
0111
0000
,
0110
0001
0010
0001
3121
1000
0001
1000
0101
0000
1101
0000
0000
0000
1101
0000
,
0101
1000
0001
1000
1231
0010
0001
0010
1001
0000
1011
0001
0010
1000
1011
0000
,
1001
0000
0010
0000
2311
0100
0001
0100
0011
0000
0111
0000
0000
0000
0111
0000
,
0011
0100
0001
0100
3121
0000
1000
0100
1100
0001
1101
0000
0000
0000
1101
0000
,
1100
0001
1000
0001
1132
0010
0100
0010
1100
0000
1110
0000
0000
0000
1110
0000
,
1100
0010
0100
0010
2113
0001
0010
0001
0110
0000
0111
0100
0010
0001
0111
0000
,
0110
0001
0010
0001
3111
0000
0010
0000
0100
0000
1011
0000
0001
0000
1110
0000
,
0010
0011
0010
0010
0111
0000
1000
0000
0100
0000
1011
0000
0100
0000
0111
0000
,
0100
1100
0100
0100
1101
0000
0002
0000
1000
0000
1110
0000
0010
0000
1110
0000
,
1000
1100
1000
1000
1113
0000
0010
0000
0100
1000
0111
1000
0100
0010
1101
0000
,
0100
1000
0100
0010
2101
0000
0010
0000
0001
0000
0111
0000
0100
0000
0111
0000
,
0010
0011
0010
3010
1201
0000
0000
0000
0010
0000
1011
0000
0000
0000
1011
0000
,
0001
1001
0001
0301
0121
0000
0000
0000
1000
0000
1101
0000
0000
0000
1101
0000
,
0100
0101
0100
0130
1102
0000
0010
0000
0100
0000
1110
0010
0100
1000
1110
0000
,
0010
0010
0010
0013
1012
0100
1000
0100
1010
0000
1110
0000
0000
0000
1110
0000
,
1010
0100
1000
0100
2113
0001
0100
0001
0110
0000
0111
0000
0000
0000
0111
0000
,
0110
0001
0100
0001
3121
1000
0100
1000
0101
0000
1101
0000
0000
0000
1101
0000
,
0101
1000
0100
1000
1231
0010
1000
0010
1001
0000
1011
0010
1000
0001
1011
0000
,
1001
0000
0010
0000
2311
0100
0010
0100
0011
0000
0111
0000
0000
0000
0111
0000
,
0011
0100
0010
0100
3121
0000
0100
0001
1001
0100
1101
0000
0000
0000
1101
0000
,
1100
0001
0100
1000
1132
0010
0100
0010
1100
0000
1110
0000
0000
0000
1110
0000
,
1100
0010
0100
0010
2113
0001
0000
0010
0100
0000
0100
0100
0100
0010
0001
0010
,
0100
0010
0001
0010
3111
0000
0001
0000
1010
0000
1110
0001
0100
0010
1101
0010
,
0101
0001
0001
0001
1011
0000
0100
0000
0011
0000
1011
0100
0010
0001
1110
0001
,
1010
0010
0010
0010
0111
0000
1000
0001
0110
0010
1101
0000
0010
0000
0111
0000
,
1010
0010
0010
0010
1110
0000
0100
0000
0011
0000
1101
0001
0001
0000
0111
1000
,
0110
0100
0100
0100
1120
0000
0000
0000
1001
0000
1101
0000
0000
0000
1101
0000
,
1001
0100
0100
0130
0112
0000
0000
0000
1100
0000
1110
0000
0000
0000
1110
0000
,
1100
0010
0010
0013
1201
0000
0000
0000
0011
0000
1011
0000
0000
0000
1011
0000
,
0011
1000
1000
1300
2011
0000
0000
0000
0101
0000
0111
0100
0100
0000
0111
0010
,
0101
0100
0010
3001
1012
0100
0010
0100
1010
0000
1110
0000
0000
0000
1110
0000
,
1010
0100
0010
0100
1123
0001
0100
0001
1100
0000
1101
0000
0000
0000
1101
0000
,
1100
0001
0100
0001
1231
0010
1000
0010
0011
0000
1011
0000
0000
0000
1011
0000
,
0011
0010
1000
0010
2311
0100
0001
0100
0101
0000
0111
0001
0001
0000
0111
0000
,
0101
0100
0001
0100
3211
1000
0010
1000
0011
0000
1011
0000
0000
0000
1011
0000
,
0011
1000
0010
1000
1321
0000
0001
0100
1001
0100
1101
0000
0000
0000
1101
0000
,
1001
0000
1000
0100
1132
1000
0100
1000
0110
0000
1110
0000
0000
0000
1110
0000
,
0110
1000
0100
1000
1123
0001
1000
0001
0101
0000
1101
1000
1000
0000
1101
0000
,
0101
1000
0001
1000
1131
0000
0000
0000
0011
0000
1101
0000
0000
0000
1101
0000
,
0011
0100
1000
0100
1010
0000
0000
0000
0101
0000
0111
0000
0000
0000
0111
0000
,
0101
0010
0001
0010
1100
0000
0000
0000
0110
0000
1101
0000
0000
0000
1101
0000
,
0110
0001
0010
0100
1001
0000
0000
0000
1010
0000
1110
0010
0010
0000
1110
0000
,
1010
0100
0010
0001
0110
0000
1000
0000
0101
0000
0010
0000
1000
0000
0010
0000
,
1100
0010
0001
0000
0010
0000
0100
0000
1001
0000
0010
0000
0001
0000
0100
0000
,
0011
0010
0010
0010
0001
0000
0010
0000
1001
0000
0100
0000
1000
0000
0010
0000
,
1100
0100
0100
0100
0001
0000
0100
0000
0011
0000
0100
0100
0100
0000
0001
0000
,
1010
0001
1101
0010
1001
0111
1100
1110
,
0101
0100
0100
0000
1101
0000
0010
0000
1100
0000
1101
0000
0101
0000
1110
0000
,
1001
0001
0001
0000
1110
0000
0100
0000
0011
0000
1110
0000
1100
0000
1011
0000
,
0101
0001
0001
0000
0200
0000
0000
0000
2000
0000
0000
0000
0320
0000
0000
0000
,
3002
0130
0013
0000
;
